#TITLE:ETERNAL BLAZE;
#SUBTITLE:- Mahou Shoujo Lyrical Nanoha A's Opening;
#ARTIST:Nana Mizuki;
#TITLETRANSLIT:;
#SUBTITLETRANSLIT:;
#ARTISTTRANSLIT:;
#CREDIT:koa5001;
#BANNER:ETERNAL BLAZE banner.png;
#BACKGROUND:ETERNAL BLAZE-bg.png;
#LYRICSPATH:ETERNAL BLAZE.lrc;
#CDTITLE:KOA_cdtitle.png;
#MUSIC:ETERNAL BLAZE (TV Size).mp3;
#OFFSET:-0.830;
#SAMPLESTART:67.897;
#SAMPLELENGTH:12.800;
#SELECTABLE:YES;
#BPMS:0.000=105.410,20.000=52.765,22.000=60.605,22.750=155.050;
#STOPS:118.750=0.387
,125.750=0.387
;
#BGCHANGES:0.000=ETERNAL BLAZE.avi=1.000=1=0=0,
252.000=ETERNAL BLAZE-bg.png=1.000=1=0=0,
99999=-nosongbg-=1.000=0=0=0 // don't automatically add -songbackground-
;
// cache tags:
#FIRSTBEAT:0.000;
#LASTBEAT:252.000;
#SONGFILENAME:songs/Otaku's Dream 3rd Anime Mix/[koa5001] ETERNAL BLAZE - Mahou Shoujo Lyrical Nanoha A's OP/ETERNAL BLAZE.sm;
#HASMUSIC:1;
#HASBANNER:1;
#MUSICLENGTH:106.944;
// end cache tags

//---------------dance-single - ----------------
#NOTES:
     dance-single:
     :
     Hard:
     8:
     0.560,0.619,0.178,0.215,0.206,377.000,19.000,23.000,0.000,0.000:
0001
0100
0010
1000
0100
1000
0010
0100
,
0001
0010
0100
1000
0100
0010
0001
1000
,
0010
0100
0010
1000
0100
0010
0100
1000
,
0010
0100
0002
0000
1000
0000
1003
0000
,
0001
0010
0100
1000
0010
0100
0001
1000
,
2002
0000
3003
1000
,
0001
0010
0000
0001
0100
0000
0001
0000
,
1000
0010
0000
1000
0100
0000
1000
0000
,
0010
0100
0000
0001
0010
0000
0001
0000
,
0100
0010
2000
0000
3001
0000
1000
0010
,
1000
0100
1000
0010
1000
0100
0010
0001
,
0100
0001
0010
0001
0100
0010
1000
0100
,
0001
0100
1000
0010
0100
0001
0010
0000
,
0100
0000
0010
0000
0000
0000
0001
0000
0100
0000
0010
0000
1000
0000
0000
0100
,
0000
0000
0010
0000
0010
0000
0000
0000
0001
0000
0000
0000
0100
0000
0000
0010
,
0000
0000
1000
0000
2000
0000
0000
0000
3000
0000
0001
0100
0001
0000
0000
0010
,
0000
0000
0100
0000
0100
0000
0000
0000
1000
0000
0000
0000
0010
0000
0000
0100
,
0000
0001
0002
0000
0003
0000
1000
0100
,
0001
0000
0100
2000
0000
0000
3000
0000
0001
0000
1000
0000
0001
0000
0100
0000
,
1000
0000
0100
0002
0000
0000
0003
0000
0010
0000
0100
0000
0010
0000
0000
0000
,
0001
0000
0000
0000
1000
0000
0000
0001
0000
0000
0100
0000
0010
0000
1000
0000
,
0100
0000
0010
0000
0001
0000
0100
0000
0010
0000
1000
0000
0001
0000
0000
0010
,
0000
0000
0001
0000
0001
0000
0000
0000
0100
0000
0000
0000
0010
0000
0000
1000
,
0000
0000
0100
0000
0200
0000
0000
0000
0300
0000
1000
0010
1000
0000
0000
0100
,
0000
0000
1000
0000
0010
0000
0001
0000
0010
0000
1000
0000
0100
0000
0000
0010
,
0000
0001
0002
0000
0013
0100
1000
0000
,
1010
0000
0100
0000
0011
0000
0001
0100
,
0010
0000
1000
0000
0000
0000
0100
0000
0010
0000
0100
1000
0100
0000
0000
0000
,
1000
0001
0000
1000
0000
0001
0000
0100
,
1000
0000
0100
0000
0001
0000
0010
0000
0001
0100
0001
0100
1010
0000
0000
0000
,
0010
1000
0010
0200
0000
0310
1000
0100
,
0010
0000
0100
0000
1000
0010
1000
0010
0101
0000
0000
0000
0100
0000
0010
0000
,
0100
0001
0000
0010
0200
0000
0310
0001
,
0100
0000
0010
1000
0010
0000
0000
0000
0100
0000
0010
0000
0000
0000
1000
0000
,
0100
0000
0010
0001
0010
0000
0000
0000
0100
0000
0010
0000
0000
0000
0001
0000
,
0100
0010
2000
0000
3001
1000
0010
0100
,
0010
0000
1000
0000
0001
0000
1000
0000
0000
0000
0000
0000
0100
0000
0000
0010
,
0000
0000
0001
0000
0100
0000
0000
0010
0000
0000
0110
0000
0000
0000
0010
0000
,
1000
0000
0001
0000
0000
0000
0000
0000
1000
0100
1000
0010
0100
0001
0010
0001
,
0100
0010
1000
0100
1000
0000
0010
0000
0100
0000
0010
0000
1000
0000
0010
0000
,
0100
0010
1000
0100
0010
0001
0011
0000
,
0001
0100
0001
0100
0001
0000
0000
0000
0010
0000
0000
0000
0100
0000
0000
1000
,
0000
0010
0100
0001
2000
0000
3001
0000
,
0100
0000
0000
0000
0000
0000
0010
0000
0000
0000
0000
0000
0100
0000
0000
0000
0000
0000
0000
0000
0000
0000
0001
0000
0000
0000
0000
0000
0000
0000
0010
0000
0000
0000
0000
0000
0001
0000
0000
0000
0000
0000
0000
0000
0000
0100
0000
0000
,
0000
0000
0010
0000
1000
0000
0000
0100
0000
0000
1000
0000
0010
0000
0000
0100
,
0000
0000
0001
1000
0001
0000
0000
0100
0000
0000
0010
0000
1000
0000
0100
0000
,
0000
0010
0000
0001
1000
0002
0000
0000
,
1003
0000
0001
0010
0100
0010
0001
0010
,
0100
0010
0001
0100
0010
1000
1010
0000
,
1000
0100
1000
0100
1000
0000
0000
0000
0100
0000
0000
0000
0010
0000
0000
0001
,
0000
0100
0010
1000
0002
0000
1003
0000
,
0001
0010
0021
0000
0001
0031
0000
0000
,
0100
0010
1000
0100
0000
2200
0000
0000
,
3300
0000
0000
0000
1000
0000
0000
0010
0000
0000
1000
0000
0001
0000
0000
0010
,
0000
0001
1000
0000
0001
0010
0100
1000
,
0100
0010
0002
0000
0000
1003
0000
0010
,
0100
0010
2000
0000
0000
3001
0000
0000
,
0000
0000
0000
0000
1100
0000
0000
1001
0000
0000
0101
0000
0011
0000
0000
1001
,
0000
1010
1001
0000
0000
0010
0100
0000
,
0100
0000
0010
0100
1000
0001
0000
1001
,
0000
0220
0000
0000
0000
0000
0000
0000
,
0000
0000
0000
0000
,
0000
0000
0000
0000
,
0330
0000
0000
0000
;

//---------------dance-single - ----------------
#NOTES:
     dance-single:
     :
     Medium:
     6:
     0.484,0.471,0.094,0.299,0.136,320.000,10.000,32.000,0.000,0.000:
0002
0000
1000
0000
1003
0000
0001
0010
,
0100
1000
0010
0100
0002
0000
0000
1003
,
0010
0000
0100
0020
0000
0000
0030
0000
,
1000
0100
0020
0000
0100
0000
0130
0000
,
1000
0010
0100
0001
0010
0100
1000
0001
,
2002
0000
3003
2000
,
0000
0000
0000
3001
0000
0010
0100
0000
,
0010
0001
0000
0100
0010
1000
0002
0000
,
0000
0000
0003
1000
0000
0010
0100
0000
,
0010
0000
1000
0000
0000
0000
0000
0000
0001
0010
0001
0010
0001
0000
0000
0000
,
0100
0000
0010
1000
0000
0100
0001
0000
,
0100
1000
0000
0010
0100
0010
1000
0000
,
0100
0000
0010
0001
0000
0100
1000
0000
,
0100
0000
0001
0000
0000
0000
0010
0000
0100
0000
0010
0000
0001
0000
0000
1000
,
0000
0000
0001
0000
0001
0000
0000
0000
0010
0000
0000
0000
0100
0000
0000
1000
,
0000
0000
0100
0000
0200
0000
0000
0000
0300
0000
1000
0000
1000
0000
0000
0001
,
0000
0000
1000
0000
1000
0000
0000
0000
0010
0000
0000
0000
0100
0000
0000
0001
,
0000
0100
0200
0000
0300
0000
0010
1000
,
0100
0000
1000
0020
0000
0000
0000
0000
0030
0000
0000
0000
0100
0000
0001
0000
,
0010
0000
0001
0200
0000
0000
0000
0000
0300
0000
0010
0000
1000
0000
0000
0000
,
0001
0000
0000
0000
1000
0000
0000
0100
0000
0000
0010
0000
0001
0000
0100
0000
,
0001
0000
0010
0000
0100
0000
1000
0000
0010
0000
1000
0000
0100
0000
0000
0010
,
0000
0000
0100
0000
0100
0000
0000
0000
1000
0000
0000
0000
0010
0000
0000
0100
,
0000
0000
0001
0000
0001
0000
0000
0000
0000
0000
0010
0100
0010
0000
0000
0001
,
0000
0000
0100
0000
0010
0000
1000
0000
0001
0000
1000
0000
0010
0000
0000
0100
,
0000
0010
0020
0000
0030
0100
0002
0003
,
0020
0030
0200
0300
2000
3000
0010
0100
,
0001
0000
1000
0000
0000
0000
0100
0000
0010
0000
0001
0100
0001
0000
0000
0000
,
0010
0100
0000
0010
0000
0001
0000
0100
,
0010
1000
0100
0001
0100
1000
1010
0000
,
0010
0100
0010
1000
0000
0100
0010
0100
,
1000
0010
0100
0001
0011
0000
0010
0100
,
0010
0001
0000
0100
0010
0100
0001
0010
,
0100
0000
1000
0010
1000
0000
0000
0000
0100
0000
0020
0000
0000
0000
0000
0000
,
0130
0000
1000
0001
1000
0000
0000
0000
0010
0000
0200
0000
0000
0000
0000
0000
,
0301
0000
2000
0000
0000
3001
0100
0010
,
0100
0000
0001
0000
1000
0000
0001
0000
0000
0000
0000
0000
0010
0000
0000
0100
,
0000
0000
0010
0000
0001
0000
0000
1000
0000
0000
1001
0000
0000
0000
0010
0000
,
0100
0010
0000
0000
1000
0100
1000
0010
,
0100
0001
0010
0000
0010
0000
0010
0000
,
0001
0100
0010
1000
0100
0010
0001
0000
,
0011
0000
0000
0000
0001
0000
0000
0000
0100
0000
0000
0000
1000
0000
0000
0100
,
0000
0001
0010
0100
0020
0000
0000
0000
,
0030
0000
0000
0100
0000
0000
1000
0000
0000
0000
0000
0010
0000
0000
0000
1000
0000
0000
0200
0000
0000
0000
0000
0000
,
0300
0000
1000
0000
0001
0000
0000
0100
0000
0000
0001
0000
0020
0000
0000
0000
,
0030
0000
0001
0100
0001
0000
0000
0010
0000
0000
0100
0000
1000
0000
0010
0000
,
0000
0100
0000
0010
1000
0002
0000
0000
,
1003
0010
0010
0010
,
1000
0100
0010
0001
0100
0010
1000
0000
,
1010
0000
0000
0000
1000
0000
0000
0000
0100
0000
0000
0000
0001
0000
0000
0100
,
0000
1000
0010
0100
0020
0000
0000
0030
,
1000
0001
2001
0000
0001
3001
0000
0000
,
0100
0010
1000
0100
0000
0010
0000
0220
,
0000
0330
0000
0000
0010
0000
0000
0100
0000
0000
0010
0000
0001
0000
0000
1000
,
0000
0001
0100
0000
0000
0001
0010
0100
,
1000
0020
0000
0000
0000
0000
0030
1000
,
0100
0010
0002
0000
0000
0000
0000
0000
,
0000
0000
0000
0000
1003
0000
0000
0100
0000
0000
1000
0000
0001
0000
0000
0010
,
0000
0001
1000
0000
0000
0010
0100
0000
,
0100
0000
0010
1000
0100
0010
0000
0110
,
0000
2002
0000
0000
0000
0000
0000
0000
,
0000
0000
0000
0000
,
0000
0000
0000
0000
,
3003
0000
0000
0000
;

//---------------dance-single - ----------------
#NOTES:
     dance-single:
     :
     Easy:
     3:
     0.256,0.295,0.103,0.318,0.000,147.000,11.000,34.000,0.000,0.000:
1000
0000
0000
0000
,
0001
0000
0000
0000
,
0010
0000
0000
0000
,
0100
0000
0000
0000
,
1000
0000
0001
0000
,
2002
0000
3003
0002
,
0000
0000
0003
0020
,
0000
0000
0030
0200
,
0000
0000
0300
2000
,
0000
0000
3000
0001
,
0100
0001
0010
0100
,
1000
0010
1000
0100
,
0010
0001
1000
0002
,
0000
0000
0003
1000
,
0000
1000
0010
1010
,
0000
1000
0000
0001
,
0000
0001
0100
0101
,
0000
0001
0000
0010
,
0000
0010
0000
0000
0000
0000
0100
0000
,
0000
0100
0000
0000
0000
0000
2000
0000
,
3000
0002
0003
0100
,
0010
1000
0001
1000
,
0000
1000
0100
1100
,
0000
1000
0000
0001
,
0000
0001
0010
0011
,
0000
0001
0000
0200
,
0300
0020
0030
0200
,
0000
0000
0300
0002
,
0000
1000
0000
1000
0000
1003
0000
0000
,
0100
0010
0001
0202
,
0000
0303
0000
0100
0000
0000
0010
0000
,
1000
0000
0100
0000
2020
0000
0000
3030
,
0000
0100
0000
0000
0010
0000
0001
0000
,
0100
0002
0000
0000
,
0003
2000
0000
0000
,
3000
0002
0003
0010
,
0100
0010
0000
0001
,
0000
0000
0200
0000
0000
0000
0000
0300
,
0000
0020
0000
0000
1000
0000
1000
0000
,
1030
0100
0010
0001
,
0010
0100
1000
0010
,
1010
0010
0100
0020
,
0030
1000
0100
0010
,
0001
0200
0300
0020
,
0030
2000
3000
0002
,
0003
2000
0000
0000
,
3000
0010
0000
0000
0000
0200
0000
0000
,
0300
0001
0010
0100
,
1000
0100
0010
0001
,
0011
0100
0010
0200
,
0300
0001
0010
0100
,
1000
0000
0010
0000
0000
0100
0000
0010
,
0000
0000
1000
0000
0000
0001
0000
1000
,
0000
0001
0100
1000
,
0100
0001
0000
0010
,
0100
2000
0000
0000
,
3000
0002
0000
0000
,
0003
0100
0000
0010
,
0000
0110
0000
0010
,
0010
0000
0100
0000
0000
0001
0000
1000
,
0000
2002
0000
0000
0000
0000
0000
0000
,
0000
0000
0000
0000
,
0000
0000
0000
0000
,
3003
0000
0000
0000
;
